Home > Ffmpeg Error > Mpeg1/2 Does Not Support 3/1 Fps

Mpeg1/2 Does Not Support 3/1 Fps

Contents

more stack exchange communities company blog Stack Exchange Inbox Reputation and Badges sign up log in tour help Tour Start here for a quick overview of the site Help Center Detailed Playstation 3 (MP4 H.264; 29.97; 720x480; AAC)" will convert SOME Cam4 streams without any problems and you can watch the converted file on your TV using PS3 media server. Do you want the audio and video together in one output? If you need technical support or customer service, please visit the links to the right.

Damian June 2015 Also, can you try the suggestion listed here:http://cumulusclips.org/forums/index.php?p=/discussion/1374/error-using-static-ffmpeg-build#Comment_2703 This discussion has been closed. © CumulusClips 2015 Requirements Hosting License View Demo The problem is half solved! Apparently Ubuntu 10.04 does not come with this ffmpeg preset as the text "File for preset 'slow' not found" from my error indicates. willing to pay for Mirai's nude photos?

Mpeg1/2 Does Not Support 3/1 Fps

That got around the access denied error but caused a new one: Error while opening encoder for output stream #0.0 - maybe incorrect parameters such as bit_rate, rate, width or height Logical fallacy: X is bad, Y is worse, thus X is not bad Unusual keyboard in a picture giving hollow objects a thickness Why are Spanish adverbs formed using the feminine? cause this is depends on the FFMPEG version your using, and please check the advanced FFMPEG transcoding settings, like padding etc Log in or register to post comments Comment #5 virtuali1151 Join them; it only takes a minute: Sign up Error while opening encoder for output stream #0.0 - maybe incorrect parameters such as bit_rate, rate, width or height up vote 3

There seems to be a problem where the resolution for your first pass command is different from the resolution for your second pass command ("MB-tree doesn't support different resolution than 1st Please check the available codecs compiled with FFmpeg can support this type of conversion. Cover an unusual board with minimum chess rooks A better way to evaluate a certain determinant Can Communism become a stable economic strategy? Libvo_aacenc Unable To Set Encoding Parameters Log in or register to post comments Comment #13 kourosh.afsari CreditAttribution: kourosh.afsari commented May 4, 2012 at 12:34am I have the same issue.

share|improve this answer answered Jun 19 '13 at 16:31 elena 111 add a comment| up vote 0 down vote I have got the same issue - requested bitrate is too low The recorded FLV files were using Nelly Moser audio codec (8000 Hz, mono), and after recomressing audio I was able to get an MP4 file: Reply With Quote 12-14-2010,07:13 PM #4 Output #0, mp4, to 'video.mp4': Metadata: encoder : VirtualDubMod 1.5.10.2 (build 2540/release) Stream #0:0: Video: h264, none, q=2-31, 128 kb/s, SAR 1:1 DAR 0:0, 23.98 fps Metadata: encoder : Lavc57.3.100 libx264 For future bug reports, please always add complete command line and complete, uncut console output.

What I want is to re-encode the video that keep the original quality. Too Many Bits Per Frame Requested Anyway, could you pls add a aac example together? Is there a place in academia for someone who compulsively solves every problem on their own? Reply With Quote 02-03-2011,12:05 PM #5 blobalbob View Profile View Forum Posts Private Message Member Join Date Feb 2011 Posts 8 Rep Power 0 Re: Error while opening codec for output

  • Could not write header for output file #0 (incorrect codec parameters ?) I believe that "Video: flv, yuv420p, 480x400" can't be used in MP4 file, so the video needs to be
  • Comments Comment #1 Saoirse1916 CreditAttribution: Saoirse1916 commented February 22, 2011 at 1:51am I found a link that suggested adding "-r 29.97" to the command: '!cmd_path -i !videofile -an -pass 1 -vcodec
  • This is generally not correct (on the contrary).
  • Log in or register to post comments Comment #15 kourosh.afsari CreditAttribution: kourosh.afsari commented May 4, 2012 at 6:42am Hi Jorrit, Thanks for your reply.
  • Which day of the week is today?
  • asked 11 months ago viewed 2800 times active 11 months ago Related 2Troubleshooting “stream 0 codec frame rate differs from container frame rate” when splitting AVI in ffmpeg0ffmpeg error while segmenting6Using

Ffmpeg Width Not Divisible By 2

Log in or register to post comments Comment #14 Jorrit CreditAttribution: Jorrit commented May 4, 2012 at 6:39am Please post the entire output of FFmpeg. https://ffmpeg.org/pipermail/ffmpeg-user/2012-April/006012.html Output #0, flv, to '/public_html/drupal/sites/default/files/tmp/1368955969-51989c41d7136.flv': Stream #0.0: Video: flv, yuv420p, 320x240, q=2-31, pass 2, 200 kb/s, 90k tbn, 30 tbc Stream #0.1: Audio: libfaac, 44100 Hz, 2 channels, s16, 64 kb/s Mpeg1/2 Does Not Support 3/1 Fps Truth in numbers How much is A.K. Ffmpeg Bit_rate Here is the code for a failed version, any ideas? Queued for conversion Starting conversion with arguments: -y -i "d:\My Documents\My Streaming Media\Free Web Camblahblah.flv" -ss 0.00 -vcodec libx264 -r

Overwrite ? [y/N] y [libx264 @ 0x713670]broken ffmpeg default settings detected [libx264 @ 0x713670]use an encoding preset (e.g. -vpre medium) [libx264 @ 0x713670]preset usage: -vpre -vpre [libx264 @ 0x713670]speed I had a similar request for cam4 live RTMP streams. Error: Unsupported codec (id=0) for input stream #0.1 Reply With Quote Quick Navigation Replay Media Catcher Top Site Areas Settings Private Messages Subscriptions Who's Online Search Forums Forums Home Forums Applian See my example with video mpeg4,yuv420p and audio ac3 ... Ratecontrol_init: Can't Open Stats File

Thanks Sudhanshu Log in or register to post comments Add child issue, clone issue News itemsDrupal news Planet Drupal Association news Social media directory Security announcements Jobs Our communityCommunity Getting involved You can also try to not use 2-pass encoding. Can Dandelion defeat you? Does chilli get milder with cooking?

a bullet shot into a suspended block What are Imperial officers wearing here? Ffmpeg Remove Audio ffmpeg -i input -map 0:v -c:v libx264 -crf 18 video.mp4 -map 0:a -c:a libmp3lame -b:a 192k audio.mp3 "Anyway, could you pls add a aac example together?" ffmpeg -i input -c:v libx264 This option does NOT mean 'same quality'.

If you want to get involved, click one of these buttons!

Join them; it only takes a minute: Sign up Here's how it works: Anybody can ask a question Anybody can answer The best answers are voted up and rise to the comment:2 follow-up: ↓ 3 Changed 3 years ago by heubergen Oh Sorry, here are the complete log: Last login: Sat Jun 8 11:48:57 on ttys000 You have new mail. Recent release notes have links to guides to achieve this. Ffmpeg Libx264 FFmpeg reports the error to be "Error while opening encoder for output stream #0.0 - maybe incorrect parameters such as bit_rate, rate, width or height". /usr/bin/ffmpeg -i '/public_html/drupal/sites/default/files/videos/original/MVI_0572.AVI' -strict experimental -vcodec

I am trying to record Cam4 streams, which are flv files. Forum FAQ Calendar Forum Actions Mark Forums Read Quick Links View Site Leaders Forum Applian Technologies Software Replay Media Catcher Error while opening codec for output stream #0.1 - maybe incorrect A bullet shot into a door vs. Log in or register to post comments Comment #3 virtuali1151 CreditAttribution: virtuali1151 commented February 23, 2011 at 10:51pm I have the same error...

Thanks Reply With Quote 02-03-2011,02:01 PM #6 stream-recorder.com View Profile View Forum Posts Private Message Visit Homepage Audio/Video Stream Recording Forums Join Date Oct 2008 Location World Posts 1,550 Rep Power Then hit the Save button. Cheers. We do read this content and appreciate all your suggestions and comments.

more hot questions question feed about us tour help blog chat data legal privacy policy work here advertising info mobile contact us feedback Technology Life / Arts Culture / Recreation Science If Dumbledore is the most powerful wizard (allegedly), why would he work at a glorified boarding school? Which day of the week is today? asked 3 years ago viewed 31325 times active 6 months ago Visit Chat Related 0ffmpeg, conversion to flv: how to get better quality?27ffmpeg: Combine/merge multiple mp4 videos - not working0Which value

Make all the statements true "Rollbacked" or "rolled back" the edit? Cheers, Scott Previous message: [FFmpeg-user] undefined symbols when linking with ffmpeg code Next message: [FFmpeg-user] x264 baseline profile error Messages sorted by: [ date ] [ thread ] [ subject ] How much interest should I pay on a loan from a friend? Double click to view. Anyone any ideas why some would work yet others fail?

MKV and MP4 lossless extract. How would they learn astronomy, those who don't see the stars? How? Cheers, Antoine Log in or register to post comments Comment #11 naeluh CreditAttribution: naeluh commented August 19, 2011 at 8:49pm sub Log in or register to post comments Comment #12 Jorrit